The Shape Of Water 2017 720p DVDScr X264

Torrent Details

The Shape of Water 2017 720p DVDScr x264

NAME
The Shape of Water 2017 720p DVDScr x264.torrent
CATEGORY
Movies
INFOHASH
c8f3a62918cb356d65ddfec787d7b6d7ee90f5c1
SIZE
1.2 GB in 1 file
ADDED
Uploaded on 08-01-2018 by our crawler pet called "Spidey".
SWARM
0 seeders & 0 peers
RATING
No votes yet.

Please login to vote for this torrent.


Description




General
Format : Matroska
Format version : Version 4 / Version 2
File size : 1.22 GiB
Duration : 2 h 2 min
Overall bit rate : 1 416 kb/s

Video
ID : 1
Format : AVC
Format/Info : Advanced Video Codec
Format profile : [email protected]
Format settings : CABAC / 4 Ref Frames
Format settings, CABAC : Yes
Format settings, ReFrames : 4 frames
Codec ID : V_MPEG4/ISO/AVC
Duration : 2 h 2 min
Bit rate : 1 300 kb/s
Width : 1 280 pixels
Height : 684 pixels
Display aspect ratio : 1.85:1
Frame rate mode : Constant
Frame rate : 30.000 FPS
Color space : YUV
Chroma subsampling : 4:2:0
Bit depth : 8 bits
Scan type : Progressive
Bits/(Pixel*Frame) : 0.049
Stream size : 1.10 GiB (91%)
Writing library : x264 core 148 r2708 86b7198
Default : Yes
Forced : No

Audio
ID : 2
Format : AAC
Format/Info : Advanced Audio Codec
Format profile : LC
Codec ID : A_AAC-2
Duration : 2 h 2 min
Bit rate : 128 kb/s
Channel(s) : 2 channels
Channel positions : Front: L R
Sampling rate : 44.1 kHz
Frame rate : 43.066 FPS (1024 SPF)
Compression mode : Lossy
Stream size : 113 MiB (9%)
Language : English
Default : Yes
Forced : No













Discussion

Comments 0

Post Your Comment

Files in this torrent

FILENAMESIZE
The Shape of Water 2017 720p DVDScr x264.mkv1.2 GB

Alternative Torrents for ''.

There are no alternative torrents found.